KASKUS

gan, ane mau tanya apa punya supernatural season 1-7
Quote:Original Posted By Slevin Zalika
gan, ane mau tanya apa punya supernatural season 1-7


blom ada gan


Code:
[TW-DRAMA] - Fondant Garden
eps ....... : 16
size ........ : 5,51GB




Code:
Release Name: A.Good.Old.Fashioned.Orgy.2011.LIMITED.1080p.BluRa y.x264-FilmHD
Size: 6720 MB
Video: MKV | 1920x1040 | 8334 kbps
Audio: English | DTS | 1509 kbps
Runtime: 01:35:24
http://www.imdb.com/title/tt1231586/

Code:
[TW-DRAMA] - I Love You So Much (2012)
eps ...... : 16 Eps
size ....... :6,79GB




Code:
[TW-DRAMA] - Ex Boyfriend (2012)
eps ........ : 14
size ........ : 5,82GB




Code:
[K-DRAMA] - Loving You 1000 Time (2010)
eps ....... : 55
size ....... : 36,6GB




Code:
Modern Family S03 720p WEB-DL DD5 1 H 264-CtrlHD
Rating: 8.8 / 10
Genre: Comedy
Actors: Ed O’Neill, Sofía Vergara, Julie Bowen
Size: 16.13 GB
VIDEO: H264 | 1280×720 | 4 167 Kbps | 23.976 fps
AUDIO: English AC-3 6 384 Kbps
IMDB link: http://www.imdb.com/title/tt1442437/




Code:
American Reunion (2012) UNRATED 1080p BluRay X264-BLOW
IMDB.........: http://www.imdb.com/title/tt1605630
RATING.......: 7.3 (34919
RETAIL DATE..: 2012-07-10
DURATION.....: 01:53:51.498
SIZE.........: 7832.14 MB
VIDEO BITRATE: 8 112 Kbps
RESOLUTION...: 1920x1040
AUDIO FORMAT.: DTS
AUDIO BITRATE: 1 510 Kbps

Code:
American.Pie.2.UNRATED.2001.720p.BluRay.x264.DTS-WiKi



NAME.................: American Pie 2
GENRE................: Comedy | Romance
RATiNG...............: 6.2/10 from 94,232 users
iMDB URL.............: http://www.imdb.com/title/tt0252866/
RELEASE DATE.........: 2012-03-06
ENCODE BY............: island
RUNTiME..............: 1h:50m:41s
FiLE SiZE............: 5.46GB
ViDEO CODEC..........: x264 5600 Kbps
AUDiO CODEC..........: DTS@ 1510kbps
FRAMERATE............: 23.976
RESOLUTiON...........: 1280x692
LANGUAGE.............: English
SUBTiTLES............: English
SOURCE...............: BluRay.1080p.AVC.DTS-HDMA5.1-TTG




Code:
Lockout (2012) UNRATED 1080p BluRay X264-BLOW
IMDB.........: http://www.imdb.com/title/tt1592525
RATING.......: 6.2 (5376
RETAIL DATE..: 2012-07-17

DURATION.....: 01:35:19.720
SIZE.........: 6716.19 MB

VIDEO BITRATE: 8 345 Kbps
RESOLUTION...: 1920x808

AUDIO FORMAT.: DTS
AUDIO BITRATE: 1 510 Kbps

Being Flynn (2012) 1080p BluRay X264-AMIABLE


Code:
Being Flynn (2012) 1080p BluRay X264-AMIABLE
Date .....: 28th May 2012
Runtime ..: 01:41:44
Size .....: 7840mb
Video ....: 1920x808 (X264 23.976fps
Audio ....: DTS 1509k
Source ...: Retail Blu-Ray
Lang .....: English
Subs .....: English / French / Spanish
IMDB .....: http://www.imdb.com/title/tt0455323
Rating ...: 6.7/10 467 votes
Screens ..: Opening Week - 43,990 (USA) (4 March 2012) (4 Screens
Genre ....: Comedy Drama

Code:

Nightfall.2012.BluRay.720p.DTS.x264-CHD
RELEASE DATE....: 06/30/2012
THEATRE DATE....: 2012
iMDB URL........: http://www.imdb.com/title/tt2171993/
iMDB RATiNG.....: 6.4/10 (134 votes)
GENRE...........: Action, Crime, Thriller
SOURCE .........: Nightfall 2012 BluRay 1080p AVC TrueHD7.1-CHDBits
ViDEO BiTRATE...: x264 L4.1 High @ 4305 Kbps
FRAME RATE......: 23.976 fps
AUDiO ..........: ENG DTS 5.1CH 1536Kbps
RUNTiME.........: 01:47:29 (h:m:s)
ASPECT RATiO....: 2.362 : 1
RESOLUTiON......: 1280 X 542
SUBTiTLES.......: Eng
FilE SiZE.......: 4.36G




Code:
Salmon Fishing In The Yemen (2011) 1080p BluRay X264-BLOW
IMDB.........: http://www.imdb.com/title/tt1441952
RATING.......: 6.9 (4527
RETAIL DATE..: 2012-07-17
DURATION.....: 01:47:22.442
SIZE.........: 7834.83 MB
VIDEO BITRATE: 8693 Kbps
RESOLUTION...: 1920x800
AUDIO FORMAT.: DTS
AUDIO BITRATE: 1 510 Kbps




Code:
You May Not Kiss The Bride (2011) 1080p BluRay x264-LEVERAGE
Video.......: x264 9420 kbps
Frame.Rate..: 23.976 fps
Audio.......: DTS 1509 kbps
Resolution..: 1280 x 720
Size........: 7.50 GB

Code:
American.Wedding.2003.UNRATED.720p.BluRay.X264-AMIABLE
size ........ : 4,37GB




Code:
Twixt.2011.1080p.BluRay.x264-LEVERAGE
RELEASE NOTES
Source.......: BluRay
Video........: x264 12700 kbps
Audio........: English DTS 1509 kbps
Subtitles....: None
Runtime......: 88 min
IMDB.........: http://www.imdb.com/title/tt1756851
Rating.......: 5.5/10 (1215 votes
Plot.........: A writer with a declining career arrives in a small
town as part of his book tour
and gets caught up in a murder mystery involving a young girl. That
night in a dream, he is approached
by a mysterious young ghost named V. He's unsure of her connection to
the murder in the town, but is
grateful for the story being handed to him. Ultimately he is led to
the truth of the story, surprised to
find that the ending has more to do with his own life than he could ever

The.Good.Doctor.2011.1080p.BluRay.x264.DTS-HDChina


Code:
The.Good.Doctor.2011.1080p.BluRay.x264.DTS-HDChina

----------MEDiA iNFO------------

SOURCE TYPE.....: 1080p Blu-Ray AVC DTSHD-MA
ViDEO BiTRATE...: x264 L4.1 CRF 18 @ 15224 kbps
FRAME RATE......: 23.976
AUDiO1..............: English DTS 5.1 CH @ 1509 kbps
RUNTiME............: 1:30:48 (h:m:s)
ASPECT RATiO....: 1.85:1
RESOLUTiON......: 1920*1040

[WESTERN] - Chuck Season 05 (2011) 720p WEB-DL


Code:
[WESTERN] - Chuck Season 05 (2011) 720p WEB-DL
size ......... : 18.2GB
eps ......... : 13 eps

Margaret.2011.LIMITED.1080p.BluRay.x264-REJECTED


Code:
Margaret.2011.LIMITED.1080p.BluRay.x264-REJECTED
Release Date .: 7-03-2012
Source .......: Retail BluRay
Runtime ......: 2hr 30min
Size .........: 10.90gb
Video ........: 1920x1040 (23.976fps
Bitrate.......: 8932 Kbps
Audio ........: English 1509kbps DTS
Subs .........: English
IMDB .........: http://www.imdb.com/title/tt0466893
Genre ........: Drama

4.44.Last.Day.On.Earth.2011.LiMiTED.1080p.BluRay.x 264-SPARKS



Code:
4.44.Last.Day.On.Earth.2011.LiMiTED.1080p.BluRay.x264-SPARKS

Release.Date: 04.07.2012
Video.......: X264 9962Kbps
Frame.Rate..: 23.976
Resolution..: 1920x1080
Audio.......: DTS
Language....: English
Length......: 1h 21m 50s
Source......: Retail Bluray
Size........: 6719MB
Subtitles...: English

http://www.imdb.com/title/tt1707391

Code:
The Little Mermaid (1989) 1080p.HDTV.DD2.0.h264
IMDB: http://www.imdb.com/title/tt0097757/

Complete name :
The.Little.Mermaid.1989.1080p.HDTV.DD2.0.h264.ts
Format : MPEG-TS
File size : 6.50 GiB
Duration : 1h 19mn
Overall bit rate : 11.8 Mbps

Video
ID : 49 (0x31)
Menu ID : 3 (0x3)
Format : AVC
Format/Info : Advanced Video Codec
Format profile : Main@L4.0
Format settings, CABAC : Yes
Codec ID : 27
Duration : 1h 19mn
Bit rate : 10.8 Mbps
Width : 1 920 pixels
Height : 1 080 pixels
Display aspect ratio : 16:9
Frame rate : 25.000 fps
Color space : YUV
Chroma subsampling : 4:2:0
Bit depth : 8 bits
Scan type : Interlaced

Audio
ID : 52 (0x34)
Menu ID : 3 (0x3)
Format : AC-3
Format/Info : Audio Coding 3
Mode extension : CM (complete main)
Format settings, Endianness : Big
Codec ID : 129
Duration : 1h 19mn
Bit rate mode : Constant
Bit rate : 384 Kbps
Channel(s) : 2 channels
Channel positions : Front: L R
Sampling rate : 48.0 KHz
Bit depth : 16 bits
Compression mode : Lossy
Delay relative to video : -428ms
Stream size : 217 MiB (3%)




Code:
Release___: Thumbelina.1994.1080p.BluRay.x264-HD4U
Date______: 27.02.2012
Url_______: http://www.imdb.com/title/tt0111419/
Res_______: 1920x1040
Bitrate___: 2pass @ 7531Kbps
Audio_____: English DTS
Subtitles_: English, French, Spanish, German, Italian, Swedish




Code:
Get.the.Gringo.2012.1080p.BluRay.x264.DTS-HDChina

----------MEDiA iNFO------------

SOURCE TYPE.....: 1080p Blu-ray AVC 1080p DTS-HD MA 5.1
ViDEO BiTRATE...: x264 L4.1 High @ 15 Mbps
FRAME RATE......: 23.976 fps
AUDiO1..........: ENGLiSH DTS 5.1 @ 1509 kbps
RESOLUTiON......: 1920 x 800
SUBTiTLE........: ENG

Code:
Cleanskin.2012.1080p.BluRay.X264-RRH
Runtime : 1hour 47 minutes and 50 seconds
Video info: 1920x808 X264 8647kbps
Audio info: DTS 1510kbps 5.1 Channels
Link : http://www.imdb.com/title/tt1598873




Code:
The.Three.Stooges.2012.720p.BluRay.x264.DTS-HDChina

----------MEDiA iNFO------------

SOURCE TYPE.....: 1080p Blu-ray AVC 1080p DTS-HD MA 5.1
ViDEO BiTRATE...: x264 L4.1 High @ 15.8 Mbps
FRAME RATE......: 23.976 fps
AUDiO1..........: ENGLiSH DTS 5.1 @ 1509 kbps
RESOLUTiON......: 1920 x 816
SUBTiTLE........: ENG

Code:
Treasure.Island.2012.720p.BluRay.x264-SAiMORNY
Genre......: Adventure
Language...: English
Lenth......: 3h 2min
Resolution.: 1920x1080
Bitrate....: 8796 Kb/s
Audio......: 1509 DTS
Subs.......: Swedish Danish Finnish Norwegian




Code:
A.Bugs.Life.1998.1080p.BluRay.x264-Japhson
DIVX RELEASE.....09/05/07
RIPPER..... Japhson
IMDB RATE.....7.3/10 48,248 votes
Country: .....USA
HD Source.........1080P BluRay
FRAME RATE.....23.976Fps
VIDEO CODEC.....X264 5060K
AUDIO CODEC....DTS 1536K
RESOLUTION....1920x816
RUNTIME.... 96MINS
GENERE..... Family | Animation | Comedy | Adventure
LANGUAGE.....English

Code:
The.Lion.King.2.Simba's.Pride.1998.1080p.BluRay.RO.x264-iHD
http://www.imdb.com/title/tt0120131
Adventure, Animation, Comedy

NAME.................: The Lion King II: Simba's Pride (1998)
ENCODED BY...........: iHD
RELEASE DATE.........: 2011.10.22
RELEASE SiZE........: 4.37GB (DVD-R size)
SOURCE...............: 1080p Blu-ray AVC DTS-HD MA

RUNTiME..............: 1:21 (chapters included and named)
ViDEO................: AVC L4.1 @ 6500 kbps
RESOLUTiON...........: 1920 x 1080
FRAMERATE............: 23.976 fps
AUDiO................: Romanian DD5.1 640kbps [original], English
DD5.1 640kbps (encoded)
SUBTiTLES DVDQS......: English, Romanian




Code:
Monster.House.2006.Bluray.1080p.MultiSub

Three teens discover that their neighbor's house is really a living,
breathing, scary monster.

Director: Gil Kenan
Writers: Dan Harmon (screenplay), Rob Schrab (screenplay), and 3 more credits »
Stars: Mitchel Musso, Sam Lerner and Spencer Locke

IMDB: http://www.imdb.com/title/tt0385880/

Complete name :
Monster.House.2006.Bluray.1080p.MultiSub.mkv
Format : Matroska
File size : 3.98 GiB
Duration : 1h 30mn
Overall bit rate : 6 282 Kbps
Movie name : Monster House 1080p Bluray - Lichman

Video
Bit rate : 5 638 Kbps
Width : 1 916 pixels
Height : 800 pixels
Display aspect ratio : 2.40:1
Frame rate : 23.976 fps
Scan type : Progressive

Audio
ID : 2
Format : AC-3
Format/Info : Audio Coding 3
Bit rate mode : Constant
Bit rate : 640 Kbps
Channel(s) : 6 channels
Channel positions : Front: L C R, Side: L R, LFE
Sampling rate : 48.0 KHz
Bit depth : 16 bits
Title : English Ac3 5.1 ch 640 kbps

Text #1
ID : 3
Format : UTF-8
Codec ID : S_TEXT/UTF8
Codec ID/Info : UTF-8 Plain Text
Title : english
Language : English
Default : No
Forced : No

Text #2
ID : 4
Format : UTF-8
Codec ID : S_TEXT/UTF8
Codec ID/Info : UTF-8 Plain Text
Title : italian
Language : Italian
Default : No
Forced : No

Text #3
ID : 5
Format : VobSub
Muxing mode : zlib
Codec ID : S_VOBSUB
Codec ID/Info : The same subtitle format used on DVDs
Title : portuguese
Language : Portuguese
Default : No
Forced : No

Text #4
ID : 6
Format : UTF-8
Codec ID : S_TEXT/UTF8
Codec ID/Info : UTF-8 Plain Text
Title : spanish
Language : Spanish
Default : No
Forced : No




Code:
Tarzan.1999.1080p.BluRay.AC3.x264-HDMaNiAcS              Û

Title...........: Tarzan
Year............: 1999
Genre...........: Animation | Adventure | Drama
iMDB Rating.....: 7.0/10
iMDB Link.......: http://www.imdb.com/title/tt0120855/
Plot............: A man raised by gorillas must decide where he really
belongs when he discovers he is a human.

TECHNiCAL SPECS

Release Name....: Tarzan.1999.1080p.BluRay.AC3.x264-HDMaNiAcS
Release Date....: 20-03-2012 (D:M:Y)
Type............: 1080p
Total Size......: 8.49 GiB
Runtime ........: 1h 31mn
Sample..........: Included
DXVA compliant..: Yes
Source..........: Tarzan (1999) Blu-ray Disc [EUR] -BLUEBIRD
Resolution......: 1920x1080
Aspect Ratio....: 16:9
Bitrate.........: 7 911 Kbps
Frame Rate......: 23.976 Fps
Video Encoder ..: x264 L4.1 High
Video Container.: Matroska (mkv)
Chapters........: YES
Audio 1.........: English AC3 640 Kbps @ 5.1 CH
Audio 2.........: Bulgarian AC3 192 Kbps 2 channels
Audio 3.........: Greek AC3 384 Kbps @ 5.1 CH
Audio 4.........: Swedish AC3 640 Kbps @ 5.1 CH
Audio 5.........: Norwegian AC3 640 Kbps @ 5.1 CH
Audio 6.........: Danish AC3 640 Kbps @ 5.1 CH
Audio 7.........: Finnish AC3 640 Kbps @ 5.1 CH
Audio 8.........: Hebrew AC3 640 Kbps @ 5.1 CH
Audio 9.........: Russian AC3 640 Kbps @ 5.1 CH
Subtitles.......: English sup from original BluRay




Code:
Pinocchio.1940.PROPER.1080p.BluRay.x264-Japhson
Release iNFO
DIVX RELEASE.....09/03/04
RIPPER..... Japhson
IMDB RATE.....7.7/10 16,302 votes
Country: .....USA
HD Source.........1080P BluRay
FRAME RATE.....23.976Fps
VIDEO CODEC.....X264 5625 K
AUDIO CODEC....DTS 1509K
RESOLUTION....1456x1080
RUNTIME.... 88MINS
GENERE.....Animation | Family | Fantasy | Musical
LANGUAGE.....English

Code:
Jonah.A.VeggieTales.Movie.2002.1080p.BluRay.x264-NODLABS
IMDB Rating.....: 6.2/10 (1,761 votes)
Duration .......: 01:22:45
Frame Rate .....: 23.976fps
Language .......: English
Subs ...........: English / English SDH / Spanish
Audio ..........: DTS 5.1 150kbps
Genre ..........: Animation | Adventure | Comedy | Drama




Code:
Planet.51.2009.1080p.BluRay

IMDB: http://www.imdb.com/title/tt0762125/

Plot: American astronaut Captain Charles "Chuck" Baker
lands on Planet 51 thinking he's the first person to
step foot on it. To his surprise, he finds that this
planet is inhabited by little green people who are
happily living in a white picket fence world, and
whose only fear is that it will be overrun by alien
invaders...like Chuck!




Code:
Robots.2005.BluRay.1080p.DTS-MA.5.1.x264.dxva-BluHD.mkv

: BluHD Team Presents

Movieinfo: : http://www.imdb.com/title/tt0358082/
General
Complete name :
Robots.2005.BluRay.1080p.DTS-MA.5.1.x264.dxva-BluHD.mkv
Format : Matroska
Format version : Version 2
File size : 10.3 GiB
Duration : 1h 29mn
Overall bit rate mode : Variable
Overall bit rate : 16.4 Mbps
Encoded date : UTC 2012-03-24 09:23:43
Writing application : mkvmerge v5.4.0 ('Piper') built on
Mar 10 2012 13:34:39
Writing library : libebml v1.2.3 + libmatroska v1.3.0




Code:
Treasure Planet (2002) 1080p BluRay DD5.1 x264-EbP
FRAMERATE.....: 23.976 fps
BITRATE.......: 9000 Kbps
RESOLUTION....: 1816 x 1080
AUDIO ........: English AC3 5.1 @ 640 Kbps
SUBTITLES.....: English, French, Portuguese, Spanish
CHAPTERS......: Included
SOURCE........: Treasure Planet 2002 1080p Blu-ray AVC DTS-HD MA 5.1-CtrlHD




Code:

TITLE........: Friends With Kids
IMDB.........: http://www.imdb.com/title/tt1720616
RATING.......: 6.2 (4519
RETAIL DATE..: 2012-07-17
DURATION.....: 01:47:17.271
SIZE.........: 7830.52 MB
VIDEO BITRATE: 8 700 Kbps
RESOLUTION...: 1920x1080
AUDIO FORMAT.: DTS
AUDIO BITRATE: 1 510 Kbps
SOURCE.......: R1 BluRay

Code:
Donkey.Xote.2007.1080p.Bluray.DTS.x264-EbP              -

- This is a true adventure comedy. The donkey, Rucio, tells the
- true story of Don Quixote and defends the idea that he wasnt
- mad, but in reality, Quixote was a very intelligent,
- passionate and enthusiastic fellow

- RELEASE DATE..: 22/08/2009
- RELEASE SIZE..: 8.58 GiB
- RUNTIME.......: 1h:27m:25s
- VIDEO CODEC...: x264, 2pass, L4.1
- FRAMERATE.....: 23.976 fps
- BITRATE.......: 11586 Kbps
- RESOLUTION....: 1920x816
- AUDIO.........: French DTS 5.1 @ 960kbs
- English DTS 2.0 @ 1509 Kbps
- SUBTITLES.....: English
- SOURCE........: Donkey Xote 2007 1080p BluRay AVC DTS-HD MA 2.0
- GENRE.........: Animation | Family
- IMDb RATING...: 5.3/10 574 votes
- IMDb LINK.....: http://www.imdb.com/title/tt0419704/




Code:
Sleeping.Beauty.1959.1080p.BluRay.x264-HD1080

Sleeping Beauty (1959)
http://www.imdb.com/title/tt0053285/

7.4/10 (14,035 votes)

source: bluray h264
codec.: x264
video.: 1920x752 @ 6817
audio.: dts @ 1509
subs..: english




Code:
Corpse Bride (2005) 1080p BD5 AC3.AVCHD.iCandy
Format : BDAV
Format/Info : Blu-ray Video
File size : 4.36 GiB
Duration : 1h 17mn
Overall bit rate mode : Variable
Overall bit rate : 8 094 Kbps
Maximum Overall bit rate : 35.5 Mbps

Video
ID : 4113 (0x1011)
Menu ID : 1 (0x1)
Format : AVC
Format/Info : Advanced Video Codec
Format profile : High@L4.1
Format settings, CABAC : Yes
Format settings, ReFrames : 3 frames
Codec ID : 27
Duration : 1h 17mn
Bit rate mode : Variable
Bit rate : 6 968 Kbps
Maximum bit rate : 17.0 Mbps
Width : 1 920 pixels
Height : 1 080 pixels
Display aspect ratio : 16:9
Frame rate : 23.976 fps
Color space : YUV
Chroma subsampling : 4:2:0
Bit depth : 8 bits
Scan type : Progressive
Bits/(Pixel*Frame) : 0.140
Stream size : 3.84 GiB (88%)
Writing library : x264 core 114 r1924 08d04a4
Encoding settings : cabac=1 / ref=3 / deblock=1:-2:-2 / analyse=0x3:0x113 / me=umh / subme=9 / psy=1 / psy_rd=0.80:0.00 / mixed_ref=1 / me_range=64 / chroma_me=1 / trellis=1 / 8x8dct=1 / cqm=0 / deadzone=21,11 / fast_pskip=0 / chroma_qp_offset=-2 / threads=12 / sliced_threads=0 / nr=0 / decimate=0 / interlaced=0 / constrained_intra=0 / bframes=5 / b_pyramid=1 / b_adapt=2 / b_bias=0 / direct=1 / weightb=1 / open_gop=0 / weightp=2 / keyint=24 / keyint_min=2 / scenecut=40 / intra_refresh=0 / rc_lookahead=24 / rc=2pass / mbtree=1 / bitrate=6968 / ratetol=1.0 / qcomp=0.60 / qpmin=0 / qpmax=69 / qpstep=4 / cplxblur=20.0 / qblur=0.5 / vbv_maxrate=17000 / vbv_bufsize=17500 / nal_hrd=vbr / ip_ratio=1.40 / aq=1:0.80

Audio
ID : 4352 (0x1100)
Menu ID : 1 (0x1)
Format : AC-3
Format/Info : Audio Coding 3
Codec ID : 129
Duration : 1h 17mn
Bit rate : 640 Kbps
Channel(s) : 5 channels
Sampling rate : 48.0 KHz
Compression mode : Lossy
Stream size : 353 MiB (8%)
Language : English

Text
ID : 4608 (0x1200)
Menu ID : 1 (0x1)
Format : PGS
Codec ID : 144
Language : English




Code:
Complete name                            : Surfs.Up.2007.1080p.Bluray.mkv
Format : Matroska
Format version : Version 2
File size : 11.4 GiB
Duration : 1h 25mn
Overall bit rate : 19.1 Mbps
Movie name : Surf's Up (2007) 1080p Bluray - Lichman
Encoded date : UTC 2012-05-12 09:36:40
Writing application : mkvmerge v4.0.0 ('The Stars were mine') built on Jun 18 2010 07:35:17
Writing library : libebml v1.0.0 + libmatroska v1.0.0
Attachment : Yes / Yes

Video
ID : 1
Format : AVC
Format/Info : Advanced Video Codec
Format profile : High@L4.1
Format settings, CABAC : Yes
Format settings, ReFrames : 4 frames
Codec ID : V_MPEG4/ISO/AVC
Duration : 1h 25mn
Bit rate : 17.2 Mbps
Width : 1 920 pixels
Height : 1 040 pixels
Display aspect ratio : 1.85:1
Frame rate : 23.976 fps
Color space : YUV
Chroma subsampling : 4:2:0
Bit depth : 8 bits
Scan type : Progressive
Bits/(Pixel*Frame) : 0.359
Stream size : 10.3 GiB (90%)
Title : Surf's Up (2007) 1080p Bluray Lichman
Writing library : x264 core 122 r2184kMod 5c85e0a
Encoding settings : cabac=1 / ref=4 / deblock=1:-3:-3 / analyse=0x3:0x113 / me=umh /
Language : English
Default : No
Forced : No
Matrix coefficients : BT.709-5, BT.1361, IEC 61966-2-4 709, SMPTE RP177

Audio
ID : 2
Format : DTS
Format/Info : Digital Theater Systems
Codec ID : A_DTS
Duration : 1h 25mn
Bit rate mode : Constant
Bit rate : 1 510 Kbps
Channel(s) : 6 channels
Channel positions : Front: L C R, Side: L R, LFE
Sampling rate : 48.0 KHz
Bit depth : 24 bits
Compression mode : Lossy
Delay relative to video : 11ms
Stream size : 923 MiB (8%)
Title : DTS 5.1 @ 1536 kbps
Language : English
Default : No
Forced : No

Text #1
ID : 3
Format : UTF-8
Codec ID : S_TEXT/UTF8
Codec ID/Info : UTF-8 Plain Text
Language : English
Default : No
Forced : No

Text #2
ID : 4
Format : UTF-8
Codec ID : S_TEXT/UTF8
Codec ID/Info : UTF-8 Plain Text
Title : ??????
Language : Russian
Default : No
Forced : No

Code:
Monsters.Inc.2001.1080p.BluRay.x264-CiNEFiLE

Release Date ......: 05/21/09

Video .............. x264 @ 8867 kbps
Audio .............. English 5.1 DTS 1509kbit/s
Subtitles .......... English
Length ............. 92 min 15 sec
Size ............... 6.55 gigs




Code:
Superman.1978.BluRay.1080p.DTS.x264-CHD

RELEASE DATE....: 06/29/2011
THEATRE DATE....: 1978
iMDB URL........: http://www.imdb.com/title/tt0078346/
iMDB RATiNG.....: 7.3/10 (39,662 votes)
GENRE...........: Action / Adventure / Family / Sci-Fi
SOURCE .........: Superman 1978 BluRay REMUX 1080p AVC DTS-HD MA5.1-CHD
ViDEO BiTRATE...: x264 L4.1 High @ 11281 Kbps
FRAME RATE......: 23.976 fps
AUDiO ..........: ENG DTS-HDMA core 5.1CH 1509kbps
RUNTiME.........: 02:23:17 (h:m:s)
ASPECT RATiO....: 2.400 : 1
RESOLUTiON......: 1920 X 800
SUBTiTLES.......: Eng
FilE SiZE.......: 12.8G




Code:
Casa.de.mi.Padre.2012.1080p.BluRay.x264.DTS-HDChina

--------------------------MEDiA iNFO-----------------------------

SOURCE TYPE.....: Bluray H.264 1080p DTSMA5.1
ViDEO BiTRATE...: x264 L4.1 High 2pass @ 11971 kbps
FRAME RATE......: 23.976 fps
AUDiO...........: English DTS 5.1 @ 1510 kbps (from DTSHD)
RUNTiME.........: 1:24:27 (h:m:s)
ASPECT RATiO....: 2.347:1
RESOLUTiON......: 1920x818
SUBTiTLES.......: N/A
FilE SiZE.......: 7.95 GB

--------------------------IMDB iNFO------------------------------

iMDB URL........: http://www.imdb.com/title/tt1702425/
iMDB RATiNG.....: 5.7/10 (2,111 votes)
GENRE...........: Comedy

Code:
Superman.IV.1987.BluRay.1080p.DTS.x264-CHD

RELEASE DATE....: 06/29/2011
THEATRE DATE....: 1987
iMDB URL........: http://www.imdb.com/title/tt0094074/
iMDB RATiNG.....: 3.4/10 (16,751 votes)
GENRE...........: Action / Adventure / Family / Fantasy / Sci-Fi
SOURCE .........: Superman IV 1987 BluRay REMUX 1080p AVC DTS-HD MA2.0-CH
ViDEO BiTRATE...: x264 L4.1 High @ 11107 Kbps
FRAME RATE......: 23.976 fps
AUDiO ..........: ENG DTS-HDMA core 2.0CH 1509kbps
RUNTiME.........: 01:29:52 (h:m:s)
ASPECT RATiO....: 2.400 : 1
RESOLUTiON......: 1920 X 800
SUBTiTLES.......: N/A
FilE SiZE.......: 7.92G




Code:
Silent.House.2011.1080p.BluRay.x264-Japhson
RIPPER..... Japhson ▓
▓ IMDB RATE.....5.3/10 (2,503 Votes) ▓
▓ Country: .....USA ▓
▓ HD Source.........1080P BluRay

▓ FRAME RATE.....23.976Fps ▓
▓ VIDEO CODEC.....X264 9409K

▓ AUDIO CODEC....DTS 1536K

▓ RESOLUTION....1920x1040

▓ RUNTIME....86MINS

▓ GENERE......Drama, Horror, Thriller

▓ LANGUAGE.....English

▓ ▓
▓ SUBSTITLE....N/A ▓


▓ MOVIE SIZE..... 1CD x71x100MB



▓ http://www.imdb.com/title/tt1767382




Code:
Hijacked.2012.BluRay.1080p.DTS.x264-CHD
RELEASE DATE....: 07/12/2012
THEATRE DATE....: 2012
iMDB URL........: http://www.imdb.com/title/tt1986857
iMDB RATiNG.....: (5 votes)
GENRE...........: Action | Thriller
SOURCE .........: Hijacked 2012 BluRay 1080p AVC TrueHD5.1-CHDBits
ViDEO BiTRATE...: x264 L4.1 High @ 8851 Kbps
FRAME RATE......: 23.976 fps
AUDiO ..........: ENG DTS 5.1CH 1536kps
RUNTiME.........: 1:30:16 (h:m:s)
ASPECT RATiO....: 1.778 : 1
RESOLUTiON......: 1920 X 1080
SUBTiTLES.......: N/A
FilE SiZE.......: 6.5G

Code:
ATM.2012.LIMITED.1080p.BluRay.x264-AN0NYM0US

RELEASE DATE: 07/13/12
STORE DATE: 07/31/12
SOURCE: BluRay Region B
FSK: RUNTIME: 90 min
ViDEO: 8895 Kbps
RESOLUTION: 1920 x 1040
AUDiO: EN DTS 1509




Code:
Brake.2012.1080p.BluRay.x264-Japhson
Release iNFO ▓
▓ ▓
▓ ▓
▓ DIVX RELEASE.....12/07/12

▓ RIPPER..... Japhson ▓
▓ IMDB RATE.....6.0/10 (2,428 Votes) ▓
▓ Country: .....USA ▓
▓ HD Source.........1080P BluRay

▓ FRAME RATE.....23.976Fps ▓
▓ VIDEO CODEC.....X264 8759K

▓ AUDIO CODEC....DTS 1536K

▓ RESOLUTION....1920x1080

▓ RUNTIME....91MINS

▓ GENERE......Crime | Thriller

▓ LANGUAGE.....English

▓ ▓
▓ SUBSTITLE....N/A ▓


▓ MOVIE SIZE..... 1CD x71x100MB




Code:
Taken (2008) BluRay 1080p DTS x264 dxva-EuReKA
Container...........: Matroska
Video Encoder.......: x264
Video Aspect Ratio..: 2.35:1 (1920x816)
Audio Codec.........: DTS
Audio BitRate.......: 1536 kbit/sec
Audio Channels......: 5.1 channels
Subtitles...........: English + Dutch
Source..............: Blu-Ray
File Size...........: 10.7 GB (avg bitrate of 14.1 Mbit)
DXVA compliant......: Yes
×